Комиссар Рекс (3 сезон 1-12 серия) / Kommissar Rex (Staffel 3) (Пит Эриель, Оливер Хиршбигель, Бодо Фюрнайзен, Ганс Вернер, Вольфганг Дикманн) [1996-1997, Австрия, Германия, Боевик/Криминал/Детектив, DVDRip] 

Цитировать
Комиссар Рекс (3 сезон 1-12 серия) / Kommissar Rex (Staffel 3)
Год выпуска: 1996-1997
Страна: Австрия/Германия
Жанр: Боевик/Криминал/Детектив
Продолжительность: 00:45:00
Перевод: Профессиональный (многоголосый закадровый), Немецкий - оригинал
Русские субтитры: Софтсаб (для момента без перевода в серии Четвероногий ангел)
Субтитры: Отсутствуют
Режиссёр: Пит Эриель, Оливер Хиршбигель, Бодо Фюрнайзен, Ганс Вернер, Вольфганг Дикманн
В ролях: Тобиас Моретти, Хайнц Вайксельбраун, Вольф Бахофнер, Герхард Цеманн, Фриц Мюллер
Описание: Замечательный полицейский пес Рекс заставляет трепетать преступное сообщество Вены. Он умен, красив, хитер, обожает воровать булочки с колбасой и предан своему хозяину - легендарному комиссару полиции, таланливому сыщику, и просто покорителю женских сердец Рихарду Мозеру.
Над релизом работали:
Fred198 Нахождение DVDRip, синхронизация, оформление релиза, раздача.
Nikki Lonely Timelord Работа над постером.
Малыш Рекс - четвероногий детектив DVDRip
Сэмпл: сэмпл
Качество: DVDRip
Формат: AVI
Видео кодек: XviD
Аудио кодек: MP3
Видео: XviD build 50, 640x480 (1.33:1), 25 fps, 876 kbps avg, 0.11 bit/pixel
Видео: XviD build 47, 464x352 (1.32:1), 25 fps, 945 kbps avg, 0.23 bit/pixel [Город в страхе]
Аудио 1: MPEG Layer 3, 48 kHz, 2 ch, 256.00 kbps avg [Russian]
Аудио 2: MPEG Layer 3, 48 kHz, 2 ch, 256.00 kbps avg [German]

MI

General
Complete name : D:\Kommissar.Rex.Staffel.3.DVDRip\Kommissar.Rex.S03E10.DVDRip.XviD-PBP.avi
Format : AVI
Format/Info : Audio Video Interleave
File size : 939 MiB
Duration : 1h 34mn
Overall bit rate : 1 389 Kbps
Writing application : VirtualDubMod 1.5.10.2 (build 2542/release)
Writing library : VirtualDubMod build 2542/release
Video
ID : 0
Format : MPEG-4 Visual
Format profile : Advanced Simple@L5
Format settings, BVOP : 1
Format settings, QPel : No
Format settings, GMC : No warppoints
Format settings, Matrix : Custom
Codec ID : XVID
Codec ID/Hint : XviD
Duration : 1h 34mn
Bit rate : 863 Kbps
Width : 640 pixels
Height : 480 pixels
Display aspect ratio : 4:3
Frame rate : 25.000 fps
Color space : YUV
Chroma subsampling : 4:2:0
Bit depth : 8 bits
Scan type : Progressive
Compression mode : Lossy
Bits/(Pixel*Frame) : 0.112
Stream size : 583 MiB (62%)
Writing library : XviD 1.2.1 (UTC 2008-12-04)
Audio #1
ID : 1
Format : MPEG Audio
Format version : Version 1
Format profile : Layer 3
Mode : Joint stereo
Codec ID : 55
Codec ID/Hint : MP3
Duration : 1h 34mn
Bit rate mode : Constant
Bit rate : 256 Kbps
Channel(s) : 2 channels
Sampling rate : 48.0 KHz
Compression mode : Lossy
Stream size : 173 MiB (18%)
Alignment : Split accross interleaves
Interleave, duration : 40 ms (1.00 video frame)
Interleave, preload duration : 500 ms
Audio #2
ID : 2
Format : MPEG Audio
Format version : Version 1
Format profile : Layer 3
Mode : Joint stereo
Mode extension : MS Stereo
Codec ID : 55
Codec ID/Hint : MP3
Duration : 1h 34mn
Bit rate mode : Constant
Bit rate : 256 Kbps
Channel(s) : 2 channels
Sampling rate : 48.0 KHz
Compression mode : Lossy
Stream size : 173 MiB (18%)
Alignment : Aligned on interleaves
Interleave, duration : 40 ms (1.00 video frame)
Interleave, preload duration : 504 ms
Writing library : LAME3.97

Скриншоты





Ссылка на предыдущие и альтернативные раздачи

http://rutracker.org/forum/viewforum.php?f=918
Вы не можете начинать темы
Вы не можете отвечать на сообщения
Вы не можете редактировать свои сообщения
Вы не можете удалять свои сообщения
Вы не можете голосовать в опросах
Вы не можете прикреплять файлы к сообщениям
Вы можете скачивать файлы
!ВНИМАНИЕ!

Сайт не предоставляет электронные версии произведений, а занимается лишь коллекционированием и каталогизацией ссылок, присылаемых и публикуемых на форуме нашими читателями. Если вы являетесь правообладателем какого-либо представленного материала и не желаете, чтобы ссылка на него находилась в нашем каталоге, свяжитесь с нами, и мы незамедлительно удалим ее. Файлы для обмена на трекере предоставлены пользователями сайта, и администрация не несет ответственности за их содержание. Просьба не заливать файлы, защищенные авторскими правами, а также файлы нелегального содержания!

Искали программы, игры, дополнения, музыка mp3, аниме, аудио книги, журналы? Добро пожаловать на свободный торрент трекер Torrents, у нас можно скачать бесплатно, без смс и регистрации и прочих ограничений лучшие, отборные сборки программ, игр. Скачать торрентом не составит труда даже не опытному пользователю. Раздачи ежедневно обновляются, только лучшие и качественные раздачи, подробные описания и скриншоты. Огромная коллекция программ для работы со звуком, графикой, дизайном, а так же множество плагинов и инструментов к ним с подробной инструкцией и рекомендациями. Прошивки для навигаторов, карты. Разнообразные игры, для Windows, Linux. В коллекцие есть и старые игры любых жанров, Rpg, Action, Shooter, strategy Множество дополнений, модификаций, сценариев для популярных игр в жанре экш, рпг, гонки, стратегии, логические игры. Множество аддонов и сценариев для Microsoft Flight Simulator Большая коллекция книг, учебников. Если нет возможности купить печатное издание - смело скачивайте цифровую версию книги или, быть может, журнала. Не любите читать - можно загрузить бесплатно аудикнигу. Для веб дизайнеров и программистов так же найдется множество специализированного софта, таких как: редакторы с подсветкой, среды программирования, компоненты, системы управления базами данных, разнообразные скрипты и шаблоны. Не так давно у нас появился материал для автолюбителей и владельцев мото - оригинальные и неоригинальные каталоги запчастей, книги и журналы по ремонту и обслуживанию, видеоуроки, статьи по чип тюнингу, прошивкам. Процедура получения контента элементарная, достаточно просто скачать торрент файл и добавить его в загрузку в вашем торрент клиенте. Если у вас нет специального торрент клиента, вы можете его скачать у нас.

Six Feet Under - Gestorben wird immer | 42 cms antique Brussels point de gaze narrow lace border - raised petal roses | Knowing Brother Episode 95