Комиссар Рекс / Kommissar Rex / Сезон: 2 / Серии: 1-15 из 15 (Ганс Вернер, Оливер Хиршбигель, Михаэль Рибль) [1995-1996, Австрия, Германия, боевик, криминал, детектив, DVD-Remux] MVO (студия НОТА по заказу ВГТРК) + Original 

Цитировать
Комиссар Рекс / Kommissar Rex
Сезон 2 / Staffel 2
-Год выпуска: 1995-1996
Страна: Австрия, Германия
Жанр: боевик, криминал, детектив
Продолжительность: 00:45:00
Перевод: Профессиональный (многоголосый закадровый), студия НОТА по заказу ВГТРК
Режиссёр: Ганс Вернер, Оливер Хиршбигель, Михаэль Рибль
В ролях: Тобиас Моретти, Гедеон Буркхард, Герхард Земан, Хайнц Вайксельбраун, Вольф Бахофнер, Ретт Батлер, Мартин Вайнек, Санто фон Хаус Цигельмайер, Фриц Мулиар, Александр Пшилль
Описание: Немецкая овчарка Рекс работает штатным сотрудником Венской криминальной полиции в отделе по расследованию убийств. Чуткий нос, бесстрашие и преданность друзьям-полицейским сделали его настоящей грозой преступного мира Австрии. Там, где в погоне требуется скорость, где надо незаметно подобраться к вооруженному преступннику, размахивающему пистолетом, или принять на себя удар, отведя его от напарника-человека, Рекс незаменим. Но, как и всякий полицейский, вне службы Рекс позволяет себе небольшие житейские слабости, но только на свой, собачий, лад. Погоняться за мячиком, оставить хозяина без обеда, вовремя схватить лакомый кусок, а потом, невинно повиливая хвостом, отводить взгляд.-Дополнительно:
За основу ремуска взяты диски DVD5. За исходники более качественного звука спасибо fert_n и Fred198. За исходники DVD спасибо SuperDVD01. На сегодня более качественных исходников по типу DVD9 в свободном доступе (естественно, бесплатном) не имеется.-| КИНОПОИСК | IMDB |
| SAMPLE | ВИКИ |
Комиссар Рекс / Сезон 1 / DVD-RemuxКомиссар Рекс / Сезон 4 / DVD-Remux-Ссылка на предыдущие и альтернативные раздачи
Качество: DVD-Remux (основа - DVD5)
Формат: MKV
Видео кодек: MPEG2
Аудио кодек: AC3
Видео: MPEG2, 720x576 (4:3), 25 fps
1-12 эпизод ~2900 kbps
13-15 эпизод ~4200 kbps
Аудио 1: Russian (Dolby AC3, 2 ch) 192 kbps, 48kHz | MVO (студия НОТА по заказу ВГТРК)
Аудио 2: German (Dolby AC3, 2 ch) 224 kbps, 48kHz | Original
Навигация по главам: есть

MediaInfo

Complete name : J:\Комиссар Рекс\Сезон 2\Kommisar_Rex_Season_2_DVDRemux\2x01.mkv
Format : Matroska
Format version : Version 2
File size : 1.08 GiB
Duration : 47mn 25s
Overall bit rate mode : Variable
Overall bit rate : 3 251 Kbps
Encoded date : UTC 2013-03-22 19:02:41
Writing application : mkvmerge v5.8.0 ('No Sleep / Pillow') built on Sep 2 2012 15:37:04
Writing library : libebml v1.2.3 + libmatroska v1.3.0
Video
ID : 1
Format : MPEG Video
Format version : Version 2
Format profile : Main@Main
Format settings, BVOP : No
Format settings, Matrix : Custom
Codec ID : V_MPEG2
Codec ID/Info : MPEG 1 or 2 Video
Duration : 47mn 25s
Bit rate mode : Variable
Bit rate : 2 770 Kbps
Maximum bit rate : 9 000 Kbps
Width : 720 pixels
Height : 576 pixels
Display aspect ratio : 4:3
Frame rate mode : Constant
Frame rate : 25.000 fps
Standard : PAL
Color space : YUV
Chroma subsampling : 4:2:0
Bit depth : 8 bits
Scan type : Interlaced
Scan order : Top Field First
Compression mode : Lossy
Bits/(Pixel*Frame) : 0.267
Stream size : 940 MiB (85%)
Default : Yes
Forced : No
Audio #1
ID : 2
Format : AC-3
Format/Info : Audio Coding 3
Mode extension : CM (complete main)
Format settings, Endianness : Big
Codec ID : A_AC3
Duration : 47mn 25s
Bit rate mode : Constant
Bit rate : 192 Kbps
Channel(s) : 2 channels
Channel positions : Front: L R
Sampling rate : 48.0 KHz
Bit depth : 16 bits
Compression mode : Lossy
Delay relative to video : -80ms
Stream size : 65.1 MiB (6%)
Title : Nota
Language : Russian
Default : Yes
Forced : No
Audio #2
ID : 3
Format : AC-3
Format/Info : Audio Coding 3
Mode extension : CM (complete main)
Format settings, Endianness : Big
Codec ID : A_AC3
Duration : 47mn 25s
Bit rate mode : Constant
Bit rate : 224 Kbps
Channel(s) : 2 channels
Channel positions : Front: L R
Sampling rate : 48.0 KHz
Bit depth : 16 bits
Compression mode : Lossy
Delay relative to video : -80ms
Stream size : 76.0 MiB (7%)
Title : Original
Language : German
Default : No
Forced : No
Menu
00:00:00.000 : en:Chapter 1
00:09:57.840 : en:Chapter 2
00:24:48.960 : en:Chapter 3
00:34:06.480 : en:Chapter 4
00:46:41.040 : en:Chapter 5

Скриншоты



Господа, большая просьба как можно дольше сидировать.
Я не смогу стоять на раздаче вечно.
Вы не можете начинать темы
Вы не можете отвечать на сообщения
Вы не можете редактировать свои сообщения
Вы не можете удалять свои сообщения
Вы не можете голосовать в опросах
Вы не можете прикреплять файлы к сообщениям
Вы можете скачивать файлы
!ВНИМАНИЕ!

Сайт не предоставляет электронные версии произведений, а занимается лишь коллекционированием и каталогизацией ссылок, присылаемых и публикуемых на форуме нашими читателями. Если вы являетесь правообладателем какого-либо представленного материала и не желаете, чтобы ссылка на него находилась в нашем каталоге, свяжитесь с нами, и мы незамедлительно удалим ее. Файлы для обмена на трекере предоставлены пользователями сайта, и администрация не несет ответственности за их содержание. Просьба не заливать файлы, защищенные авторскими правами, а также файлы нелегального содержания!

Искали программы, игры, дополнения, музыка mp3, аниме, аудио книги, журналы? Добро пожаловать на свободный торрент трекер Torrents, у нас можно скачать бесплатно, без смс и регистрации и прочих ограничений лучшие, отборные сборки программ, игр. Скачать торрентом не составит труда даже не опытному пользователю. Раздачи ежедневно обновляются, только лучшие и качественные раздачи, подробные описания и скриншоты. Огромная коллекция программ для работы со звуком, графикой, дизайном, а так же множество плагинов и инструментов к ним с подробной инструкцией и рекомендациями. Прошивки для навигаторов, карты. Разнообразные игры, для Windows, Linux. В коллекцие есть и старые игры любых жанров, Rpg, Action, Shooter, strategy Множество дополнений, модификаций, сценариев для популярных игр в жанре экш, рпг, гонки, стратегии, логические игры. Множество аддонов и сценариев для Microsoft Flight Simulator Большая коллекция книг, учебников. Если нет возможности купить печатное издание - смело скачивайте цифровую версию книги или, быть может, журнала. Не любите читать - можно загрузить бесплатно аудикнигу. Для веб дизайнеров и программистов так же найдется множество специализированного софта, таких как: редакторы с подсветкой, среды программирования, компоненты, системы управления базами данных, разнообразные скрипты и шаблоны. Не так давно у нас появился материал для автолюбителей и владельцев мото - оригинальные и неоригинальные каталоги запчастей, книги и журналы по ремонту и обслуживанию, видеоуроки, статьи по чип тюнингу, прошивкам. Процедура получения контента элементарная, достаточно просто скачать торрент файл и добавить его в загрузку в вашем торрент клиенте. Если у вас нет специального торрент клиента, вы можете его скачать у нас.

Minecraft - PS4 | Nodame Cantabile | Internationale Antiq. & Kunst