Комиссар Рекс / Kommissar Rex / Сезон: 8 / Серии: 1-13(13) (Хайо Гис, Микаэль Рибль, Андреас Прохаска и др.) [2002-2003, Австрия, Германия, детектив / криминальная комеди, DVDRip] MVO (СТС), Original 

Цитировать
Комиссар Рекс / Kommissar Rex
Год выпуска: 2002-2003
Страна: Австрия-Германия
Жанр: детектив / криминальная комеди
Продолжительность: ~00:46:00
Перевод: Профессиональный (многоголосый закадровый) СТС
Русские субтитры: нет
Режиссёр: Хайо Гис, Микаэль Рибль, Андреас Прохаска и др.
В ролях: Александр Пшилль, Эльке Винкенс, Мартин Вайнек, Герхард Земанн.
Описание: Каждую серию этого увлекательного детектива, полицейский и собака вместе расследуют загадочные убийства на фоне красивейшего города Вена. Тихие улочки, старинные здания, чинные горожане и .... страшные преступления, совершаемые в самых приличных, казалось бы, домах! Жертвой может стать даже безобидная старушка! Почему? Зачем? Кто?
Нюх Рекса часто помогает выйти на след преступника или найти важную улику, а если дело доходит до прямого столкновения с вооруженным злодеем, Рекс бесстрашно бросается на врага, и всегда готов прикрыть своего партнёра и от пуль, и от ножа.
Популярность многосерийного детектива «Комиссар Рекс» продолжает расти! Он уже переведён на 10 языков! Десятки, сотни, тысячи и миллионы людей более чем в ста странах мира с удовольствием следят за приключениями хвостатого, пушистого, строгого, но очень милого блюстителя порядка. А он, в свою очередь, заинтересованно смотрит с экрана на зрителей!
Ссылка на предыдущие и альтернативные раздачи: http://rutracker.org/forum/viewforum.php?f=918
Сэмпл: http://multi-up.com/705273
Качество: DVDRip
Формат: AVI
Видео кодек: XviD
Аудио кодек: MP3
Видео: MPEG4, XviD, 640x480 (4/3), 25.000 fps, 885 Kbps (0.115 bit/pixel)
Аудио 1: MP3, 48.0 KHz, 2 ch, 128 Kbps, CBR - русский
Аудио 2: MP3, 48.0 KHz, 2 ch, 128 Kbps, CBR

MI

Общее
Полное имя : K:\МОИ РАЗДАЧИ\Kommissar Rex. Season 8\8x01 - Polizisten küsst man nicht (С полицейскими не целуются).avi
Формат : AVI
Формат/Информация : Audio Video Interleave
Размер файла : 382 Мбайт
Продолжительность : 46 м.
Общий поток : 1156 Кбит/сек
Название фильма : Комиссар Рекс. Сезон 8 / Kommissar Rex. Staffel 8 (2002-2003)
Программа кодирования : VirtualDubMod 1.5.10.2 (build 2540/release)
Библиотека кодирования : VirtualDubMod build 2540/release
Видео
Идентификатор : 0
Формат : MPEG-4 Visual
Профиль формата : Advanced Simple@L5
Параметр BVOP формата : 1
Параметр QPel формата : Нет
Параметр GMC формата : Без точки перехода
Параметр матрицы формата : Выборочная
Идентификатор кодека : XVID
Идентификатор кодека/Подсказка : XviD
Продолжительность : 46 м.
Битрейт : 885 Кбит/сек
Ширина : 640 пикселей
Высота : 480 пикселей
Соотношение сторон : 4:3
Частота кадров : 25,000 кадров/сек
Цветовое пространство : YUV
Субдискретизация насыщенности : 4:2:0
Битовая глубина : 8 бит
Тип развёртки : Прогрессивная
Метод сжатия : С потерями
Бит/(Пиксели*Кадры) : 0.115
Размер потока : 293 Мбайт (77%)
Библиотека кодирования : XviD 1.2.1 (UTC 2008-12-04)
Аудио #1
Идентификатор : 1
Формат : MPEG Audio
Версия формата : Version 1
Профиль формата : Layer 3
Режим : Joint stereo
Расширение режима : MS Stereo
Идентификатор кодека : 55
Идентификатор кодека/Подсказка : MP3
Продолжительность : 46 м.
Вид битрейта : Постоянный
Битрейт : 128 Кбит/сек
Каналы : 2 канала
Частота : 48,0 КГц
Метод сжатия : С потерями
Размер потока : 42,3 Мбайт (11%)
Выравнивание : Разделение по промежуткам
Продолжительность промежутка : 40 мс. (1,00 видеокадр)
Время предзагрузки промежутка : 500 мс.
Заголовок : Профессиональный (многоголосый, закадровый) НОТА
Аудио #2
Идентификатор : 2
Формат : MPEG Audio
Версия формата : Version 1
Профиль формата : Layer 3
Режим : Joint stereo
Расширение режима : MS Stereo
Идентификатор кодека : 55
Идентификатор кодека/Подсказка : MP3
Продолжительность : 46 м.
Вид битрейта : Постоянный
Битрейт : 128 Кбит/сек
Каналы : 2 канала
Частота : 48,0 КГц
Метод сжатия : С потерями
Размер потока : 42,3 Мбайт (11%)
Выравнивание : Разделение по промежуткам
Продолжительность промежутка : 40 мс. (1,00 видеокадр)
Время предзагрузки промежутка : 500 мс.
Заголовок : Немецкий

Скриншоты


Вы не можете начинать темы
Вы не можете отвечать на сообщения
Вы не можете редактировать свои сообщения
Вы не можете удалять свои сообщения
Вы не можете голосовать в опросах
Вы не можете прикреплять файлы к сообщениям
Вы можете скачивать файлы
!ВНИМАНИЕ!

Сайт не предоставляет электронные версии произведений, а занимается лишь коллекционированием и каталогизацией ссылок, присылаемых и публикуемых на форуме нашими читателями. Если вы являетесь правообладателем какого-либо представленного материала и не желаете, чтобы ссылка на него находилась в нашем каталоге, свяжитесь с нами, и мы незамедлительно удалим ее. Файлы для обмена на трекере предоставлены пользователями сайта, и администрация не несет ответственности за их содержание. Просьба не заливать файлы, защищенные авторскими правами, а также файлы нелегального содержания!

Искали программы, игры, дополнения, музыка mp3, аниме, аудио книги, журналы? Добро пожаловать на свободный торрент трекер Torrents, у нас можно скачать бесплатно, без смс и регистрации и прочих ограничений лучшие, отборные сборки программ, игр. Скачать торрентом не составит труда даже не опытному пользователю. Раздачи ежедневно обновляются, только лучшие и качественные раздачи, подробные описания и скриншоты. Огромная коллекция программ для работы со звуком, графикой, дизайном, а так же множество плагинов и инструментов к ним с подробной инструкцией и рекомендациями. Прошивки для навигаторов, карты. Разнообразные игры, для Windows, Linux. В коллекцие есть и старые игры любых жанров, Rpg, Action, Shooter, strategy Множество дополнений, модификаций, сценариев для популярных игр в жанре экш, рпг, гонки, стратегии, логические игры. Множество аддонов и сценариев для Microsoft Flight Simulator Большая коллекция книг, учебников. Если нет возможности купить печатное издание - смело скачивайте цифровую версию книги или, быть может, журнала. Не любите читать - можно загрузить бесплатно аудикнигу. Для веб дизайнеров и программистов так же найдется множество специализированного софта, таких как: редакторы с подсветкой, среды программирования, компоненты, системы управления базами данных, разнообразные скрипты и шаблоны. Не так давно у нас появился материал для автолюбителей и владельцев мото - оригинальные и неоригинальные каталоги запчастей, книги и журналы по ремонту и обслуживанию, видеоуроки, статьи по чип тюнингу, прошивкам. Процедура получения контента элементарная, достаточно просто скачать торрент файл и добавить его в загрузку в вашем торрент клиенте. Если у вас нет специального торрент клиента, вы можете его скачать у нас.

Inferno BluRay 1080p | Intimate Lingerie | Download