Комиссар Рекс (13 сезон, 1-12 серии из 12) / Il Commissario Rex (Tredicesima stagione)(Marco Serafini / Марко Серафини) [2009-2010, Италия, Детектив, SATRip] Original it + MVO rus (канал Fox Crime Russia) 

Цитировать
Комиссар Рекс / Il Commissario Rex-- ---Год выпуска: 2009-2010
Страна: Италия
Жанр: Детектив
Продолжительность: ~00:46:00
Перевод: профессиональный (многоголосый, закадровый) - от Fox Crime Russia + оригинал (итальянский)
Русские субтитры: нет
Субтитры: отсутсвуют
Режиссёр: Марко Серафини / Marco Serafini
Оператор: Массимо Лупи / Massimo Lupi
Композитор: Алессандро Молинари / Alessandro Molinari
Продюссеры: Раффаэлло Монтеверде / Raffaello Monteverde, Кристина Дзукиатти / Cristina Zucchiatti, Фердинанд Дона / Ferdinand Dohna
Авторы сценария: Стефано Пьяни / Stefano Piani, Лука Дзеси / Luca Zesi
В ролях: Kaspar Capparoni / Каспар Каппарони, Pilar Abella / Пилар Абелла, Fabio Ferri / Фабио Ферри, Augusto Zucci / Августо Дзукки, ...
Описание: Знаменитый полицейский пёс Рекс возвращается на службу правосудия. Теперь действия происходят в Италии.
Доп. информация: В отличае от релиза с рипами от канала Fox Crime Russia, в этой раздаче серии с оригинальным звуком.

Названия серий

1. Чемпион
2. Кентавры
3. Вой собаки
4. Мой ансамбль играет рок
5. Считаные минуты
6. Отличные парни
7. Кошачьи глаза
8. Название кометы
9. Нераскрытое дело
10. Маэстро, музыку
11. Пропавшая девушка
12. Проклятие Караваджо

1. Il campione - Чемпион

В ролях: Kaspar Capparoni, Fabio Ferri, Pilar Abella, Barbara Ricci, Emanuele Arrigazzi, Francesco Rossini, Nuccio Siano, Eleonora Gaggioli, Augusto Zucchi
Авторы сценария: Stefano Piani, Luca Zesi
Описание:

Над релизом работали

fert_n: Запись звука.
Fred198: Выкачка SATRip, синхронизация.
MrSherlockHolmes: Оформление релиза, раздача.

Когда будут следующие серии?

Когда будет время, желание и возможность.
Ваши вопросы не ускорят выкладку серий.

Внимание! Раздача ведётся путём добавления новых серий!

Внимание! Раздача ведётся путём добавления новых серий; при каждом добавлении создётся новый торрент. Чтобы начать докачку новой серии, пользователям необходимо сделать следующее:
(1) остановить скачивание,
(2) удалить старый торрент у себя из клиента (старые серии удалять не надо),
(3) скачать новый торрент и запустить его у себя в клиенте вместо старого, при этом указать клиенту путь в старую папку куда и должно происходить скачивание новых серий.
Ваш клиент при этом должен произвести хеширование (проверку) старой папки (если не производит сам - помогите ему сделать это), и будет докачивать только те серии которых у вас ещё нет. Старые серии при этом не удаляются, а продолжают раздаваться!
Eсли вы уже удалили старые серии, то предотвратить повторную закачку старых серий можно, отжав галочку в соответсвующих местах при запуске нового торрента.

Другие раздачи сериала

Другие раздачи сериала

MI

General
Format : AVI
Format/Info : Audio Video Interleave
File size : 511 MiB
Duration : 44mn 13s
Overall bit rate : 1 614 Kbps
Video
ID : 0
Format : MPEG-4 Visual
Format profile : Advanced Simple@L5
Format settings, BVOP : Yes
Format settings, QPel : No
Format settings, GMC : No warppoints
Format settings, Matrix : Default (H.263)
Codec ID : XVID
Codec ID/Hint : XviD
Duration : 44mn 13s
Bit rate : 968 Kbps
Width : 624 pixels
Height : 352 pixels
Display aspect ratio : 16:9
Frame rate : 25.000 fps
Color space : YUV
Chroma subsampling : 4:2:0
Bit depth : 8 bits
Scan type : Progressive
Bits/(Pixel*Frame) : 0.176
Stream size : 306 MiB (60%)
Writing library : XviD 1.2.1 (UTC 2008-12-04)
Audio #1
ID : 1
Format : MPEG Audio
Format version : Version 1
Format profile : Layer 3
Codec ID : 55
Codec ID/Hint : MP3
Duration : 44mn 13s
Bit rate mode : Constant
Bit rate : 320 Kbps
Channel(s) : 2 channels
Sampling rate : 48.0 KHz
Stream size : 101 MiB (20%)
Alignment : Aligned on interleaves
Interleave, duration : 536 ms (13.39 video frames)
Interleave, preload duration : 216 ms
Writing library : LAME3.98r
Encoding settings : -m s -V 4 -q 3 -lowpass 20.5
Audio #2
ID : 2
Format : MPEG Audio
Format version : Version 1
Format profile : Layer 3
Codec ID : 55
Codec ID/Hint : MP3
Duration : 44mn 13s
Bit rate mode : Constant
Bit rate : 320 Kbps
Channel(s) : 2 channels
Sampling rate : 48.0 KHz
Stream size : 101 MiB (20%)
Alignment : Aligned on interleaves
Interleave, duration : 536 ms (13.39 video frames)
Interleave, preload duration : 216 ms
Title : 13x01 - Il campione
Writing library : LAME3.98r
Encoding settings : -m s -V 4 -q 3 -lowpass 20.5
Качество: SATRip (канал Rai Uno)
Формат: AVI
Видео кодек: XviD
Аудио кодек: MP3
Видео: MPEG4, XviD, 624x352 (16/9), 25.000 fps, 968 Kbps (0.176 bit/pixel)
Аудио 1:MP3, 48.0 KHz, 2 ch, 320 Kbps, CBR [Russian]
Аудио 2:MP3, 48.0 KHz, 2 ch, 320 Kbps, CBR [Italian]
-

Скриншоты

- - - - - - -
-Добавлены 2-12 серии. Просьба перекачать торрент.
Вы не можете начинать темы
Вы не можете отвечать на сообщения
Вы не можете редактировать свои сообщения
Вы не можете удалять свои сообщения
Вы не можете голосовать в опросах
Вы не можете прикреплять файлы к сообщениям
Вы можете скачивать файлы
!ВНИМАНИЕ!

Сайт не предоставляет электронные версии произведений, а занимается лишь коллекционированием и каталогизацией ссылок, присылаемых и публикуемых на форуме нашими читателями. Если вы являетесь правообладателем какого-либо представленного материала и не желаете, чтобы ссылка на него находилась в нашем каталоге, свяжитесь с нами, и мы незамедлительно удалим ее. Файлы для обмена на трекере предоставлены пользователями сайта, и администрация не несет ответственности за их содержание. Просьба не заливать файлы, защищенные авторскими правами, а также файлы нелегального содержания!

Искали программы, игры, дополнения, музыка mp3, аниме, аудио книги, журналы? Добро пожаловать на свободный торрент трекер Torrents, у нас можно скачать бесплатно, без смс и регистрации и прочих ограничений лучшие, отборные сборки программ, игр. Скачать торрентом не составит труда даже не опытному пользователю. Раздачи ежедневно обновляются, только лучшие и качественные раздачи, подробные описания и скриншоты. Огромная коллекция программ для работы со звуком, графикой, дизайном, а так же множество плагинов и инструментов к ним с подробной инструкцией и рекомендациями. Прошивки для навигаторов, карты. Разнообразные игры, для Windows, Linux. В коллекцие есть и старые игры любых жанров, Rpg, Action, Shooter, strategy Множество дополнений, модификаций, сценариев для популярных игр в жанре экш, рпг, гонки, стратегии, логические игры. Множество аддонов и сценариев для Microsoft Flight Simulator Большая коллекция книг, учебников. Если нет возможности купить печатное издание - смело скачивайте цифровую версию книги или, быть может, журнала. Не любите читать - можно загрузить бесплатно аудикнигу. Для веб дизайнеров и программистов так же найдется множество специализированного софта, таких как: редакторы с подсветкой, среды программирования, компоненты, системы управления базами данных, разнообразные скрипты и шаблоны. Не так давно у нас появился материал для автолюбителей и владельцев мото - оригинальные и неоригинальные каталоги запчастей, книги и журналы по ремонту и обслуживанию, видеоуроки, статьи по чип тюнингу, прошивкам. Процедура получения контента элементарная, достаточно просто скачать торрент файл и добавить его в загрузку в вашем торрент клиенте. Если у вас нет специального торрент клиента, вы можете его скачать у нас.

Kotoura-san | Ethnographic | iRULU X3 7 Inch Android 6.0 Marshmallow Tablet PC 16GB Quad Core Wifi GMS Black$54.99 24d left