Комиссар Рекс (13 сезон, специальная серия) / Il Commissario Rex: Tredicesima Stagione (Еpisodio speciale) (Gerald Liegel) [2009, Италия, Австрия, детектив, DVDRip] Original (it) + MVO (rus) (канал Fox Crime Russia) + 2xDUB (Ger, Czech) + eng sub 

Цитировать
Комиссар Рекс: 13 сезон (Специальная серия) - Последний матч / Il Commissario Rex: Tredicesima stagione (Еpisodio speciale) - L'ultima partita-- ---Год выпуска: 2009
Страна: Италия, Австрия
Жанр: Детектив
Продолжительность: 01:26:30
Перевод: профессиональный (многоголосый, закадровый) - от Fox Crime Russia + оригинал - итальянский + профессиональный (полное дублирование) - немецкий + профессиональный (полное дублирование) - чешский
Русские субтитры: софтсаб на непереведенный момент
Субтитры: английские
Режиссёр: Gerald Liegel / Геральд Лигель
Авторы сценария: Peter Hajek / Петер Хайек, Peter Moser / Петер Мозер
Оператор: Andy Löv / Анди Лёв
Композитор: Peter Wolf / Петер Вольф
В ролях: Kaspar Capparoni / Каспар Каппарони, Laurence Rupp / Лоренс Рупп, Anna Fischer/ Анна Фишер, Martin Weinek / Мартин Вайнек, Gerhard Zemann / Герхард Земанн, Wolfram Berger / Вольфрам Бергер, Serkan Kaya / Серкан Кайа, Gertraud Jesserer / Гертруд Йессерер
Описание: Вена, июнь 2008. В австрийской столице проходит Чемпионат Европы по футболу. Но в это же время, там работает опасный серийный убийца, убивающий людей, связанных с футболом. Кунц занимается расследованием преступления и нуждается в помощи Рекса. Так Фаббри и Рекс оказываются в Вене после успешного окончания дела в Риме.

Над релизом работали

fert_n: Запись русского звука.
Fred198: Нахождение DVDRip, синхронизация (русская, итальянская, немецкая дорожки).
MrSherlockHolmes: Синхронизация (чешская дорожка), оформление релиза, раздача.

Другие раздачи сериала

Другие раздачи сериала

MI

General
Format : AVI
Format/Info : Audio Video Interleave
File size : 1.15 GiB
Duration : 1h 26mn
Overall bit rate : 1 907 Kbps
Video
ID : 0
Format : MPEG-4 Visual
Format profile : Advanced Simple@L5
Format settings, BVOP : Yes
Format settings, QPel : No
Format settings, GMC : No warppoints
Format settings, Matrix : Default (H.263)
Codec ID : XVID
Codec ID/Hint : XviD
Duration : 1h 26mn
Bit rate : 997 Kbps
Width : 624 pixels
Height : 352 pixels
Display aspect ratio : 16:9
Frame rate : 25.000 fps
Color space : YUV
Chroma subsampling : 4:2:0
Bit depth : 8 bits
Scan type : Progressive
Bits/(Pixel*Frame) : 0.182
Stream size : 617 MiB (52%)
Writing library : XviD 1.2.1 (UTC 2008-12-04)
Audio #1
ID : 1
Format : MPEG Audio
Format version : Version 1
Format profile : Layer 3
Codec ID : 55
Codec ID/Hint : MP3
Duration : 1h 26mn
Bit rate mode : Constant
Bit rate : 320 Kbps
Channel(s) : 2 channels
Sampling rate : 48.0 KHz
Stream size : 198 MiB (17%)
Alignment : Aligned on interleaves
Interleave, duration : 460 ms (11.49 video frames)
Interleave, preload duration : 216 ms
Writing library : LAME3.98r
Encoding settings : -m s -V 4 -q 3 -lowpass 20.5
Audio #2
ID : 2
Format : MPEG Audio
Format version : Version 1
Format profile : Layer 3
Codec ID : 55
Codec ID/Hint : MP3
Duration : 1h 26mn
Bit rate mode : Constant
Bit rate : 320 Kbps
Channel(s) : 2 channels
Sampling rate : 48.0 KHz
Stream size : 198 MiB (17%)
Alignment : Aligned on interleaves
Interleave, duration : 460 ms (11.49 video frames)
Interleave, preload duration : 216 ms
Title : Italian
Writing library : LAME3.98r
Encoding settings : -m s -V 4 -q 3 -lowpass 20.5
Audio #3
ID : 3
Format : MPEG Audio
Format version : Version 1
Format profile : Layer 3
Mode : Joint stereo
Mode extension : MS Stereo
Codec ID : 55
Codec ID/Hint : MP3
Duration : 1h 26mn
Bit rate mode : Constant
Bit rate : 128 Kbps
Channel(s) : 2 channels
Sampling rate : 48.0 KHz
Stream size : 79.3 MiB (7%)
Alignment : Aligned on interleaves
Interleave, duration : 460 ms (11.49 video frames)
Interleave, preload duration : 216 ms
Title : German
Audio #4
ID : 4
Format : MPEG Audio
Format version : Version 1
Format profile : Layer 3
Mode : Joint stereo
Mode extension : MS Stereo
Codec ID : 55
Codec ID/Hint : MP3
Duration : 1h 26mn
Bit rate mode : Constant
Bit rate : 128 Kbps
Channel(s) : 2 channels
Sampling rate : 48.0 KHz
Stream size : 79.2 MiB (7%)
Alignment : Aligned on interleaves
Interleave, duration : 24 ms (0.60 video frame)
Interleave, preload duration : 720 ms
Title : Czech
Качество: DVDRip
Формат: AVI
Видео кодек: XviD
Аудио кодек: MP3
Видео: MPEG4, XviD, 624x352 (16/9), 25.000 fps, 997 Kbps (0.182 bit/pixel)
Аудио #1: MP3, 48.0 KHz, 2 ch, 320 Kbps, CBR [russian]
Аудио #2: MP3, 48.0 KHz, 2 ch, 320 Kbps, CBR [italian]
Аудио #3: MP3, 48.0 KHz, 2 ch, 128 Kbps, CBR [german]
Аудио #4: MP3, 48.0 KHz, 2 ch, 128 Kbps, CBR [czech]
-

Скриншоты

- - - - - - -
-Исправлена проблема с видео (распиксилизацией в некоторых местах), добавлены русские субтитры на непереведенное место, английские субтитры, итальянская, немецкая и чешская звуковые дорожки. Просьба перекачать торрент.
Вы не можете начинать темы
Вы не можете отвечать на сообщения
Вы не можете редактировать свои сообщения
Вы не можете удалять свои сообщения
Вы не можете голосовать в опросах
Вы не можете прикреплять файлы к сообщениям
Вы можете скачивать файлы
!ВНИМАНИЕ!

Сайт не предоставляет электронные версии произведений, а занимается лишь коллекционированием и каталогизацией ссылок, присылаемых и публикуемых на форуме нашими читателями. Если вы являетесь правообладателем какого-либо представленного материала и не желаете, чтобы ссылка на него находилась в нашем каталоге, свяжитесь с нами, и мы незамедлительно удалим ее. Файлы для обмена на трекере предоставлены пользователями сайта, и администрация не несет ответственности за их содержание. Просьба не заливать файлы, защищенные авторскими правами, а также файлы нелегального содержания!

Искали программы, игры, дополнения, музыка mp3, аниме, аудио книги, журналы? Добро пожаловать на свободный торрент трекер Torrents, у нас можно скачать бесплатно, без смс и регистрации и прочих ограничений лучшие, отборные сборки программ, игр. Скачать торрентом не составит труда даже не опытному пользователю. Раздачи ежедневно обновляются, только лучшие и качественные раздачи, подробные описания и скриншоты. Огромная коллекция программ для работы со звуком, графикой, дизайном, а так же множество плагинов и инструментов к ним с подробной инструкцией и рекомендациями. Прошивки для навигаторов, карты. Разнообразные игры, для Windows, Linux. В коллекцие есть и старые игры любых жанров, Rpg, Action, Shooter, strategy Множество дополнений, модификаций, сценариев для популярных игр в жанре экш, рпг, гонки, стратегии, логические игры. Множество аддонов и сценариев для Microsoft Flight Simulator Большая коллекция книг, учебников. Если нет возможности купить печатное издание - смело скачивайте цифровую версию книги или, быть может, журнала. Не любите читать - можно загрузить бесплатно аудикнигу. Для веб дизайнеров и программистов так же найдется множество специализированного софта, таких как: редакторы с подсветкой, среды программирования, компоненты, системы управления базами данных, разнообразные скрипты и шаблоны. Не так давно у нас появился материал для автолюбителей и владельцев мото - оригинальные и неоригинальные каталоги запчастей, книги и журналы по ремонту и обслуживанию, видеоуроки, статьи по чип тюнингу, прошивкам. Процедура получения контента элементарная, достаточно просто скачать торрент файл и добавить его в загрузку в вашем торрент клиенте. Если у вас нет специального торрент клиента, вы можете его скачать у нас.

Entertainment Memorabilia | Madagascar 2018 MNH Captain James Cook Endeavour 4v M/S Boats Ships Stamps | Batman The Animated Series S01-S04 1080p ReMuX BluRay DTS HD-MA H 264-BTN