Комиссар Рекс (13 сезон, специальная серия) / Il Commissario Rex: Tredicesima Stagione (Еpisodio speciale) (Gerald Liegel) [2009, Италия, Австрия, детектив, DVBRip] MVO (канал Fox Crime Russia) 

Цитировать
Комиссар Рекс: 13 сезон (Специальная серия) - Последний матч / Il Commissario Rex: Tredicesima stagione (Еpisodio speciale) - L'ultima partita-- ---Год выпуска: 2009
Страна: Италия, Австрия
Жанр: Детектив
Продолжительность: 01:26:30
Перевод: профессиональный (многоголосый, закадровый) - от Fox Crime Russia
Русские субтитры: нет
Субтитры: отсутствуют
Режиссёр: Gerald Liegel
Авторы сценария: Peter Hajek, Peter Moser
Оператор: Andy L öv
Композитор: Peter Wolf
В ролях: Kaspar Capparoni, Laurence Rupp, Anna Fischer, Martin Weinek, Gerhard Zemann, Wolfram Berger, Serkan Kaya, Gertraud Jesserer
Описание: Вена, июнь 2008. В австрийской столице проходит Чемпионат Европы по футболу. Но в это же время, там работает опасный серийный убийца, убивающий людей, связанных с футболом. Кунц занимается расследованием преступления и нуждается в помощи Рекса. Так Фаббри и Рекс оказываются в Вене после успешного окончания дела в Риме.

Над релизом работали

Fred198: Нахождение DVBRip, запись русского звука, синхронизация.
MrSherlockHolmes: Оформление релиза, раздача.

Другие раздачи сериала

[url=tracker.php?f=918&nm=комиссар рекс]Другие раздачи сериала[/url]

Сэмпл

[url=http:// СПАМ

MI

General
Format : AVI
Format/Info : Audio Video Interleave
File size : 578 MiB
Duration : 1h 26mn
Overall bit rate : 934 Kbps
Writing application : VirtualDubMod 1.5.10.2 (build 2540/release)
Writing library : VirtualDub build 32817/release
Video
ID : 0
Format : MPEG-4 Visual
Format profile : Advanced Simple@L5
Format settings, BVOP : Yes
Format settings, QPel : No
Format settings, GMC : No warppoints
Format settings, Matrix : Default (H.263)
Muxing mode : Packed bitstream
Codec ID : XVID
Codec ID/Hint : XviD
Duration : 1h 26mn
Bit rate : 605 Kbps
Width : 640 pixels
Height : 352 pixels
Display aspect ratio : 16:9
Frame rate : 25.000 fps
Color space : YUV
Chroma subsampling : 4:2:0
Bit depth : 8 bits
Scan type : Progressive
Bits/(Pixel*Frame) : 0.107
Stream size : 374 MiB (65%)
Writing library : XviD 58
Audio
ID : 1
Format : MPEG Audio
Format version : Version 1
Format profile : Layer 3
Codec ID : 55
Codec ID/Hint : MP3
Duration : 1h 26mn
Bit rate mode : Constant
Bit rate : 320 Kbps
Channel(s) : 2 channels
Sampling rate : 48.0 KHz
Stream size : 198 MiB (34%)
Alignment : Split accross interleaves
Interleave, duration : 40 ms (1.00 video frame)
Interleave, preload duration : 500 ms
Writing library : LAME3.98r
Encoding settings : -m s -V 4 -q 3 -lowpass 20.5
Качество: DVBRip
Формат: AVI
Видео кодек: XviD
Аудио кодек: MP3
Видео: 640x352 (1.82:1), 25 fps, XviD MPEG-4 ~604 kbps avg, 0.11 bit/pixel
Аудио: 48 kHz, MPEG Layer 3, 2 ch, ~320.00 kbps avg
-

Скриншоты

- - - -
-
Вы не можете начинать темы
Вы не можете отвечать на сообщения
Вы не можете редактировать свои сообщения
Вы не можете удалять свои сообщения
Вы не можете голосовать в опросах
Вы не можете прикреплять файлы к сообщениям
Вы можете скачивать файлы
!ВНИМАНИЕ!

Сайт не предоставляет электронные версии произведений, а занимается лишь коллекционированием и каталогизацией ссылок, присылаемых и публикуемых на форуме нашими читателями. Если вы являетесь правообладателем какого-либо представленного материала и не желаете, чтобы ссылка на него находилась в нашем каталоге, свяжитесь с нами, и мы незамедлительно удалим ее. Файлы для обмена на трекере предоставлены пользователями сайта, и администрация не несет ответственности за их содержание. Просьба не заливать файлы, защищенные авторскими правами, а также файлы нелегального содержания!

Искали программы, игры, дополнения, музыка mp3, аниме, аудио книги, журналы? Добро пожаловать на свободный торрент трекер Torrents, у нас можно скачать бесплатно, без смс и регистрации и прочих ограничений лучшие, отборные сборки программ, игр. Скачать торрентом не составит труда даже не опытному пользователю. Раздачи ежедневно обновляются, только лучшие и качественные раздачи, подробные описания и скриншоты. Огромная коллекция программ для работы со звуком, графикой, дизайном, а так же множество плагинов и инструментов к ним с подробной инструкцией и рекомендациями. Прошивки для навигаторов, карты. Разнообразные игры, для Windows, Linux. В коллекцие есть и старые игры любых жанров, Rpg, Action, Shooter, strategy Множество дополнений, модификаций, сценариев для популярных игр в жанре экш, рпг, гонки, стратегии, логические игры. Множество аддонов и сценариев для Microsoft Flight Simulator Большая коллекция книг, учебников. Если нет возможности купить печатное издание - смело скачивайте цифровую версию книги или, быть может, журнала. Не любите читать - можно загрузить бесплатно аудикнигу. Для веб дизайнеров и программистов так же найдется множество специализированного софта, таких как: редакторы с подсветкой, среды программирования, компоненты, системы управления базами данных, разнообразные скрипты и шаблоны. Не так давно у нас появился материал для автолюбителей и владельцев мото - оригинальные и неоригинальные каталоги запчастей, книги и журналы по ремонту и обслуживанию, видеоуроки, статьи по чип тюнингу, прошивкам. Процедура получения контента элементарная, достаточно просто скачать торрент файл и добавить его в загрузку в вашем торрент клиенте. Если у вас нет специального торрент клиента, вы можете его скачать у нас.

Confronta | PCFixKit | Mori no Densetsu Movie (1987)