Комиссар Рекс (1 сезон 1-14 серия) / Kommissar Rex (Staffel 1) (Пит Эриель, Оливер Хиршбигель, Бодо Фюрнайзен, Ганс Вернер, Вольфганг Дикманн) [1994-1995, Австрия, Германия, Боевик/Криминал/Детектив, DVDRip] 

Цитировать
Комиссар Рекс (1 сезон 1-14 серия) / Kommissar Rex (Staffel 1)
Год выпуска: 1994-1995
Страна: Австрия/Германия
Жанр: Боевик/Криминал/Детектив
Продолжительность: 00:45:00
Перевод: Профессиональный (многоголосый закадровый), Немецкий - оригинал
Русские субтитры: нет
Субтитры: Отсутствуют
Режиссёр: Пит Эриель, Оливер Хиршбигель, Бодо Фюрнайзен, Ганс Вернер, Вольфганг Дикманн
В ролях: Тобиас Моретти, Карл Маркович, Вольф Бахофнер, Герхард Цеманн, Фриц Мюллер
Описание: Замечательный полицейский пес Рекс заставляет трепетать преступное сообщество Вены. Он умен, красив, хитер, обожает воровать булочки с колбасой и предан своему хозяину - легендарному комиссару полиции, таланливому сыщику, и просто покорителю женских сердец Рихарду Мозеру.
Над релизом работали:
DVDSuper01 и NcryptoR Выкачивание DVD с usenet и других источников
Fred198 Создание рипа, синхронизация, оформление релиза, раздача.
Nikki Lonely Timelord Работа над постером.
Малыш Рекс - четвероногий детектив DVDRip
Сэмпл: сэмпл
Качество: DVDRip
Формат: AVI
Видео кодек: XviD
Аудио кодек: MP3
Видео: XviD build 64, 720x544 (1.32:1), 25 fps, 2000 kbps avg, 0.20 bit/pixel
Аудио 1: MPEG Layer 3, 48 kHz, 2 ch, 256.00 kbps avg [Russian]
Аудио 2: MPEG Layer 3, 48 kHz, 2 ch, 192.00 kbps avg [German]

MI

General
Complete name : L:\Kommissar.Rex.Staffel.1.DVDRip\Kommissar.Rex.S01E09.DVDRip-PBP.avi
Format : AVI
Format/Info : Audio Video Interleave
File size : 816 MiB
Duration : 46mn 20s
Overall bit rate : 2 462 Kbps
Writing application : VirtualDubMod 1.5.10.2 (build 2542/release)
Writing library : VirtualDubMod build 2542/release
Video
ID : 0
Format : MPEG-4 Visual
Format profile : Advanced Simple@L5
Format settings, BVOP : 2
Format settings, QPel : No
Format settings, GMC : No warppoints
Format settings, Matrix : Default (H.263)
Codec ID : XVID
Codec ID/Hint : XviD
Duration : 46mn 20s
Bit rate : 2 000 Kbps
Width : 720 pixels
Height : 544 pixels
Display aspect ratio : 4:3
Frame rate : 25.000 fps
Color space : YUV
Chroma subsampling : 4:2:0
Bit depth : 8 bits
Scan type : Progressive
Compression mode : Lossy
Bits/(Pixel*Frame) : 0.204
Stream size : 663 MiB (81%)
Writing library : XviD 64
Audio #1
ID : 1
Format : MPEG Audio
Format version : Version 1
Format profile : Layer 3
Mode : Joint stereo
Codec ID : 55
Codec ID/Hint : MP3
Duration : 46mn 20s
Bit rate mode : Constant
Bit rate : 256 Kbps
Channel(s) : 2 channels
Sampling rate : 48.0 KHz
Compression mode : Lossy
Stream size : 84.8 MiB (10%)
Alignment : Aligned on interleaves
Interleave, duration : 40 ms (1.00 video frame)
Interleave, preload duration : 504 ms
Audio #2
ID : 2
Format : MPEG Audio
Format version : Version 1
Format profile : Layer 3
Codec ID : 55
Codec ID/Hint : MP3
Duration : 46mn 19s
Bit rate mode : Constant
Bit rate : 192 Kbps
Channel(s) : 2 channels
Sampling rate : 48.0 KHz
Compression mode : Lossy
Stream size : 63.6 MiB (8%)
Alignment : Split accross interleaves
Interleave, duration : 40 ms (1.00 video frame)
Interleave, preload duration : 500 ms
Writing library : LAME3.99‚

Скриншоты





Ссылка на предыдущие и альтернативные раздачи

http://rutracker.org/forum/viewforum.php?f=918
Внимание!!! Торрент перезалит! 1 cезон залит в улучшеном качестве. Просьба перекачать торрент
Вы не можете начинать темы
Вы не можете отвечать на сообщения
Вы не можете редактировать свои сообщения
Вы не можете удалять свои сообщения
Вы не можете голосовать в опросах
Вы не можете прикреплять файлы к сообщениям
Вы можете скачивать файлы
!ВНИМАНИЕ!

Сайт не предоставляет электронные версии произведений, а занимается лишь коллекционированием и каталогизацией ссылок, присылаемых и публикуемых на форуме нашими читателями. Если вы являетесь правообладателем какого-либо представленного материала и не желаете, чтобы ссылка на него находилась в нашем каталоге, свяжитесь с нами, и мы незамедлительно удалим ее. Файлы для обмена на трекере предоставлены пользователями сайта, и администрация не несет ответственности за их содержание. Просьба не заливать файлы, защищенные авторскими правами, а также файлы нелегального содержания!

Искали программы, игры, дополнения, музыка mp3, аниме, аудио книги, журналы? Добро пожаловать на свободный торрент трекер Torrents, у нас можно скачать бесплатно, без смс и регистрации и прочих ограничений лучшие, отборные сборки программ, игр. Скачать торрентом не составит труда даже не опытному пользователю. Раздачи ежедневно обновляются, только лучшие и качественные раздачи, подробные описания и скриншоты. Огромная коллекция программ для работы со звуком, графикой, дизайном, а так же множество плагинов и инструментов к ним с подробной инструкцией и рекомендациями. Прошивки для навигаторов, карты. Разнообразные игры, для Windows, Linux. В коллекцие есть и старые игры любых жанров, Rpg, Action, Shooter, strategy Множество дополнений, модификаций, сценариев для популярных игр в жанре экш, рпг, гонки, стратегии, логические игры. Множество аддонов и сценариев для Microsoft Flight Simulator Большая коллекция книг, учебников. Если нет возможности купить печатное издание - смело скачивайте цифровую версию книги или, быть может, журнала. Не любите читать - можно загрузить бесплатно аудикнигу. Для веб дизайнеров и программистов так же найдется множество специализированного софта, таких как: редакторы с подсветкой, среды программирования, компоненты, системы управления базами данных, разнообразные скрипты и шаблоны. Не так давно у нас появился материал для автолюбителей и владельцев мото - оригинальные и неоригинальные каталоги запчастей, книги и журналы по ремонту и обслуживанию, видеоуроки, статьи по чип тюнингу, прошивкам. Процедура получения контента элементарная, достаточно просто скачать торрент файл и добавить его в загрузку в вашем торрент клиенте. Если у вас нет специального торрент клиента, вы можете его скачать у нас.

База Куантико / Quantico [03x01-05 из 13] (2018) WEB-DLRip | Jaskier 41 minutes | SURESHKM | Posicionamento do satélite do dispositivo de seguimento do perseguidor de GPS do tempo real de GF-07 o mini mini