(Dub, Downtempo) [CD] Ott - Fairchildren - 2015, FLAC (image+.cue), lossless 

Цитировать
Ott / Fairchildren
Жанр: Dub, Downtempo
Носитель: CD
Страна-производитель диска (релиза): UK
Год издания: 2015
Издатель (лейбл): Ottsonic Music
Номер по каталогу: OTT005
Страна исполнителя (группы): UK
Аудиокодек: FLAC (*.flac)
Тип рипа: image+.cue
Битрейт аудио: lossless
Продолжительность: 57:43
Источник (релизер): собственный рип
Наличие сканов в содержимом раздачи: да
Треклист:
01 A Gentle Place By Birth Is You
02 16mm Summer Day
03 Coursing Batch
04 Harwell Dekatron
05 Unit Delta Plus
06 Hello, My Name Is...
07 The Bicycle Of The Sky
08 Ship Is Not A Child

Лог создания рипа

Exact Audio Copy V1.3 from 2. September 2016
Отчёт EAC об извлечении, выполненном 7. сентября 2018, 20:09
Ott / Fairchildren
Дисковод: Optiarc DVD RW AD-7200A Adapter: 1 ID: 1
Режим чтения : ДостоверностьИспользование точного потока : ДаОтключение кэша аудио : ДаИспользование указателей C2 : Нет
Коррекция смещения при чтении : 48Способность читать области Lead-in и Lead-out : НетЗаполнение пропущенных сэмплов тишиной : ДаУдаление блоков с тишиной в начале и конце : НетПри вычислениях CRC использовались нулевые сэмплы : ДаИнтерфейс : Встроенный Win32-интерфейс для Win NT/2000
Выходной формат : Пользовательский кодировщикВыбранный битрейт : 128 kBit/sКачество : ВысокийДобавление ID3-тега : НетУтилита сжатия : C:\Program Files\Exact Audio Copy\FLAC\FLAC.EXEДополнительные параметры : -V -8 -T "Date=%year%" -T "Genre=%genre%" %source%
TOC извлечённого CD
Трек | Старт | Длительность | Начальный сектор | Конечный сектор --------------------------------------------------------------------- 1 | 0:00.00 | 2:42.08 | 0 | 12157 2 | 2:42.08 | 7:16.13 | 12158 | 44870 3 | 9:58.21 | 9:15.01 | 44871 | 86496 4 | 19:13.22 | 6:53.37 | 86497 | 117508 5 | 26:06.59 | 8:10.03 | 117509 | 154261 6 | 34:16.62 | 6:32.44 | 154262 | 183705 7 | 40:49.31 | 6:11.17 | 183706 | 211547 8 | 47:00.48 | 10:42.69 | 211548 | 259766
Характеристики диапазона извлечения и сообщения об ошибках
Выбранный диапазон
Имя файла C:\Users\User\Documents\Ott - Fairchildren.wav
Пиковый уровень 98.8 % Скорость извлечения 3.9 X Качество диапазона 100.0 % CRC теста 2F143546 CRC копии 2F143546 Копирование... OK
Ошибок не произошло
AccurateRip: сводка
Трек 1 : извлечено точно (доверие 3) [AA6B1936] (AR v2)Трек 2 : извлечено точно (доверие 3) [39E43082] (AR v2)Трек 3 : извлечено точно (доверие 3) [5914C0F6] (AR v2)Трек 4 : извлечено точно (доверие 3) [33D8360D] (AR v2)Трек 5 : извлечено точно (доверие 3) [69060775] (AR v2)Трек 6 : извлечено точно (доверие 3) [DE4D4B21] (AR v2)Трек 7 : извлечено точно (доверие 3) [528AE5AE] (AR v2)Трек 8 : извлечено точно (доверие 3) [3EED2236] (AR v2)
Все треки извлечены точно
Конец отчёта
==== Контрольная сумма отчёта 12861052B6FA552BADDDF42A06FB5B89D23D61044AE6DD2471CAB891D143A6AC ====

Содержание индексной карты (.CUE)

REM GENRE "Psychill, Dub, Downtempo"REM DATE 2015REM DISCID 5C0D8708REM COMMENT "ExactAudioCopy v1.3"CATALOG 0859715312560PERFORMER "Ott"TITLE "Fairchildren"REM COMPOSER ""FILE "Ott - Fairchildren.flac" WAVE  TRACK 01 AUDIO    TITLE "A Gentle Place By Birth Is You"    PERFORMER "Ott"    REM COMPOSER ""    ISRC TCACH1560002    INDEX 01 00:00:00  TRACK 02 AUDIO    TITLE "16mm Summer Day"    PERFORMER "Ott"    REM COMPOSER ""    ISRC TCACH1560003    INDEX 01 02:42:08  TRACK 03 AUDIO    TITLE "Coursing Batch"    PERFORMER "Ott"    REM COMPOSER ""    ISRC TCACH1560004    INDEX 01 09:58:21  TRACK 04 AUDIO    TITLE "Harwell Dekatron"    PERFORMER "Ott"    REM COMPOSER ""    ISRC TCACH1560006    INDEX 01 19:13:22  TRACK 05 AUDIO    TITLE "Unit Delta Plus"    PERFORMER "Ott"    REM COMPOSER ""    ISRC TCACH1560007    INDEX 01 26:06:59  TRACK 06 AUDIO    TITLE "Hello, My Name Is..."    PERFORMER "Ott"    REM COMPOSER ""    ISRC TCACH1560008    INDEX 01 34:16:62  TRACK 07 AUDIO    TITLE "The Bicycle Of The Sky"    PERFORMER "Ott"    REM COMPOSER ""    ISRC TCACH1560009    INDEX 01 40:49:31  TRACK 08 AUDIO    TITLE "Ship Is Not A Child"    PERFORMER "Ott"    REM COMPOSER ""    ISRC TCACH1560011    INDEX 01 47:00:48

Об альбоме (сборнике)

discogs bandcamp
Вы не можете начинать темы
Вы не можете отвечать на сообщения
Вы не можете редактировать свои сообщения
Вы не можете удалять свои сообщения
Вы не можете голосовать в опросах
Вы не можете прикреплять файлы к сообщениям
Вы можете скачивать файлы
!ВНИМАНИЕ!

Сайт не предоставляет электронные версии произведений, а занимается лишь коллекционированием и каталогизацией ссылок, присылаемых и публикуемых на форуме нашими читателями. Если вы являетесь правообладателем какого-либо представленного материала и не желаете, чтобы ссылка на него находилась в нашем каталоге, свяжитесь с нами, и мы незамедлительно удалим ее. Файлы для обмена на трекере предоставлены пользователями сайта, и администрация не несет ответственности за их содержание. Просьба не заливать файлы, защищенные авторскими правами, а также файлы нелегального содержания!

Искали программы, игры, дополнения, музыка mp3, аниме, аудио книги, журналы? Добро пожаловать на свободный торрент трекер Torrents, у нас можно скачать бесплатно, без смс и регистрации и прочих ограничений лучшие, отборные сборки программ, игр. Скачать торрентом не составит труда даже не опытному пользователю. Раздачи ежедневно обновляются, только лучшие и качественные раздачи, подробные описания и скриншоты. Огромная коллекция программ для работы со звуком, графикой, дизайном, а так же множество плагинов и инструментов к ним с подробной инструкцией и рекомендациями. Прошивки для навигаторов, карты. Разнообразные игры, для Windows, Linux. В коллекцие есть и старые игры любых жанров, Rpg, Action, Shooter, strategy Множество дополнений, модификаций, сценариев для популярных игр в жанре экш, рпг, гонки, стратегии, логические игры. Множество аддонов и сценариев для Microsoft Flight Simulator Большая коллекция книг, учебников. Если нет возможности купить печатное издание - смело скачивайте цифровую версию книги или, быть может, журнала. Не любите читать - можно загрузить бесплатно аудикнигу. Для веб дизайнеров и программистов так же найдется множество специализированного софта, таких как: редакторы с подсветкой, среды программирования, компоненты, системы управления базами данных, разнообразные скрипты и шаблоны. Не так давно у нас появился материал для автолюбителей и владельцев мото - оригинальные и неоригинальные каталоги запчастей, книги и журналы по ремонту и обслуживанию, видеоуроки, статьи по чип тюнингу, прошивкам. Процедура получения контента элементарная, достаточно просто скачать торрент файл и добавить его в загрузку в вашем торрент клиенте. Если у вас нет специального торрент клиента, вы можете его скачать у нас.

Intro to Business - 1170 Words | Karl Schaefer | Shokugeki no Soma 139