(Ambient, Abstract, Bass) [WEB] Sovvy — Hypertrophy, 2017, FLAC (tracks), lossless 

Цитировать
Sovvy — Hypertrophy (2017, Self-released)- Жанр: Electronic
Стиль: Ambient, Abstract, Bass
Формат: WEB
Год издания: 2017
Страна исполнителя (группы): UK
Аудиокодек: FLAC (*.flac)
Тип рипа: tracks
Продолжительность: 00:09:31
Источник: bandcamp, собственное приобретение
Наличие сканов в содержимом раздачи: только обложка
-Треклист:
01. Sovvy - No Signal [02:07]
02. Sovvy - Dreamcatcher [03:04]
03. Sovvy - Angry [04:20]-Полезные ссылки:
MusicBrainz: Sovvy — Hypertrophy
Bandcamp: Sovvy — Hypertrophy-В релизе присутствует видеоролик в формате .mp4, поставляющийся вместе с релизом bandcamp.
Sovvy — Hypertrophy, 2017 был издан на лейбле Imminent Records, доступен для ознакомления здесь: http://rutracker.org/forum/viewtopic.php?t=5528006.

Лог проверки качества

-----------------------
DON'T MODIFY THIS FILE
-----------------------
PERFORMER: auCDtect Task Manager, ver. 1.6.0 RC1 build 1.6.0.1Copyright (c) 2008-2010 y-soft. All rights reservedhttp://y-soft.org
ANALYZER: auCDtect: CD records authenticity detector, version 0.8.2Copyright (c) 2004 Oleg Berngardt. All rights reserved.Copyright (c) 2004 Alexander Djourik. All rights reserved.
FILE: 3. Angry.flac Size: 26777968 Hash: 65FC62561DC828E1A9224D09C56E7231 Accuracy: -m0 Conclusion: MPEG 95% Signature: 7F8E842AE7495011893EE46367B3E14548639319FILE: 2. Dreamcatcher.flac Size: 16690057 Hash: 0CE3FF820F65A0E2465FBCA5D4E84D3B Accuracy: -m0 Conclusion: MPEG 95% Signature: 0A04AF584F6F5A0B19785DD336044F202A7606DEFILE: 1. No Signal.flac Size: 11841170 Hash: DDA1E0A2484823D3DD79DCD0A2718CD4 Accuracy: -m0 Conclusion: MPEG 95% Signature: 9494815E456787322FD4299EA567022791647B19

Скриншот спектра частот

Замер динамического диапазона (DRM)

foobar2000 1.3.17 / Dynamic Range Meter 1.1.1
log date: 2018-03-02 03:13:43
--------------------------------------------------------------------------------
Analyzed: Sovvy / Hypertrophy
--------------------------------------------------------------------------------
DR Peak RMS Duration Track
--------------------------------------------------------------------------------
DR6 0.00 dB -10.96 dB 2:08 01-No Signal
DR8 0.00 dB -12.30 dB 3:05 02-Dreamcatcher
DR7 0.00 dB -9.52 dB 4:20 03-Angry
--------------------------------------------------------------------------------
Number of tracks: 3
Official DR value: DR7
Samplerate: 44100 Hz
Channels: 2
Bits per sample: 16
Bitrate: 805 kbps
Codec: FLAC
================================================================================
Вы не можете начинать темы
Вы не можете отвечать на сообщения
Вы не можете редактировать свои сообщения
Вы не можете удалять свои сообщения
Вы не можете голосовать в опросах
Вы не можете прикреплять файлы к сообщениям
Вы можете скачивать файлы
!ВНИМАНИЕ!

Сайт не предоставляет электронные версии произведений, а занимается лишь коллекционированием и каталогизацией ссылок, присылаемых и публикуемых на форуме нашими читателями. Если вы являетесь правообладателем какого-либо представленного материала и не желаете, чтобы ссылка на него находилась в нашем каталоге, свяжитесь с нами, и мы незамедлительно удалим ее. Файлы для обмена на трекере предоставлены пользователями сайта, и администрация не несет ответственности за их содержание. Просьба не заливать файлы, защищенные авторскими правами, а также файлы нелегального содержания!

Искали программы, игры, дополнения, музыка mp3, аниме, аудио книги, журналы? Добро пожаловать на свободный торрент трекер Torrents, у нас можно скачать бесплатно, без смс и регистрации и прочих ограничений лучшие, отборные сборки программ, игр. Скачать торрентом не составит труда даже не опытному пользователю. Раздачи ежедневно обновляются, только лучшие и качественные раздачи, подробные описания и скриншоты. Огромная коллекция программ для работы со звуком, графикой, дизайном, а так же множество плагинов и инструментов к ним с подробной инструкцией и рекомендациями. Прошивки для навигаторов, карты. Разнообразные игры, для Windows, Linux. В коллекцие есть и старые игры любых жанров, Rpg, Action, Shooter, strategy Множество дополнений, модификаций, сценариев для популярных игр в жанре экш, рпг, гонки, стратегии, логические игры. Множество аддонов и сценариев для Microsoft Flight Simulator Большая коллекция книг, учебников. Если нет возможности купить печатное издание - смело скачивайте цифровую версию книги или, быть может, журнала. Не любите читать - можно загрузить бесплатно аудикнигу. Для веб дизайнеров и программистов так же найдется множество специализированного софта, таких как: редакторы с подсветкой, среды программирования, компоненты, системы управления базами данных, разнообразные скрипты и шаблоны. Не так давно у нас появился материал для автолюбителей и владельцев мото - оригинальные и неоригинальные каталоги запчастей, книги и журналы по ремонту и обслуживанию, видеоуроки, статьи по чип тюнингу, прошивкам. Процедура получения контента элементарная, достаточно просто скачать торрент файл и добавить его в загрузку в вашем торрент клиенте. Если у вас нет специального торрент клиента, вы можете его скачать у нас.

The Kids Are Alright Season 1 Episode 1 | cascata alta 18cm con motore acqua vera presepe x pastori crib shepherds gia 10 | Happy Lesson (14)