(Experimental, Ambient) [CD] Mimesis - Art Imitating Life - 2007, FLAC (tracks+.cue), lossless 

Цитировать
Mimesis / Art Imitating Life
Жанр: Experimental, Ambient
Носитель: CD
Страна-производитель диска (релиза): Australia
Год издания: 2007
Издатель (лейбл): Psy-Harmonics
Номер по каталогу: PSY-062
Страна исполнителя (группы): Australia
Аудиокодек: FLAC (*.flac)
Тип рипа: tracks+.cue
Битрейт аудио: lossless
Продолжительность: 1:19:48
Источник (релизер): N/A
Наличие сканов в содержимом раздачи: нет
Треклист:
01. The Beginning - 11:08
02. Kuala Lumpur 1983 - 12:40
03. She's In The Garden - 6:29
04. White - 21:39
05. Matthews Sends His Regards - 8:49
06. Fin - 19:03

Лог создания рипа

Exact Audio Copy V1.0 beta 3 from 29. August 2011
EAC extraction logfile from 16. July 2014, 21:57
Mimesis / Art Imitating Life
Used drive : HL-DT-STDVD-RAM GH22NP20 Adapter: 4 ID: 1
Read mode : SecureUtilize accurate stream : YesDefeat audio cache : YesMake use of C2 pointers : No
Read offset correction : 102Overread into Lead-In and Lead-Out : NoFill up missing offset samples with silence : YesDelete leading and trailing silent blocks : NoNull samples used in CRC calculations : YesUsed interface : Native Win32 interface for Win NT & 2000Gap handling : Appended to previous track
Used output format : User Defined EncoderSelected bitrate : 128 kBit/sQuality : HighAdd ID3 tag : NoCommand line compressor : C:\Program Files (x86)\Exact Audio Copy\Flac\flac.exeAdditional command line options : -8 -V -T "ARTIST=%artist%" -T "TITLE=%title%" -T "ALBUM=%albumtitle%" -T "DATE=%year%" -T "TRACKNUMBER=%tracknr%" -T "GENRE=%genre%" -T "PERFORMER=%albuminterpret%" -T "COMPOSER=%composer%" %haslyrics%--tag-from-file=LYRICS="%lyricsfile%"%haslyrics% -T "ALBUMARTIST=%albumartist%" -T "DISCNUMBER=%cdnumber%" -T "TOTALDISCS=%totalcds%" -T "TOTALTRACKS=%numtracks%" -T "COMMENT=%comment%" %source% -o %dest%
TOC of the extracted CD
Track | Start | Length | Start sector | End sector --------------------------------------------------------- 1 | 0:00.00 | 11:07.60 | 0 | 50084 2 | 11:07.60 | 12:40.16 | 50085 | 107100 3 | 23:48.01 | 6:28.57 | 107101 | 136257 4 | 30:16.58 | 21:39.25 | 136258 | 233707 5 | 51:56.08 | 8:48.40 | 233708 | 273347 6 | 60:44.48 | 19:03.11 | 273348 | 359083
Track 1
Filename E:\01 - The Beginning.wav
Pre-gap length 0:00:02.00
Peak level 68.4 % Extraction speed 2.1 X Track quality 100.0 % Test CRC DD15A418 Copy CRC DD15A418 Accurately ripped (confidence 2) [BD43F4FE] (AR v2) Copy OK
Track 2
Filename E:\02 - Kuala Lumpur 1983.wav
Peak level 96.6 % Extraction speed 2.6 X Track quality 100.0 % Test CRC F97A253C Copy CRC F97A253C Accurately ripped (confidence 2) [54DAFBD9] (AR v2) Copy OK
Track 3
Filename E:\03 - She's In The Garden.wav
Peak level 96.6 % Extraction speed 2.5 X Track quality 99.9 % Test CRC BB3E57E2 Copy CRC BB3E57E2 Accurately ripped (confidence 2) [0B551803] (AR v2) Copy OK
Track 4
Filename E:\04 - White.wav
Peak level 96.6 % Extraction speed 3.3 X Track quality 100.0 % Test CRC 527FB371 Copy CRC 527FB371 Accurately ripped (confidence 1) [F47F5B11] (AR v2) Copy OK
Track 5
Filename E:\05 - Matthews Sends His Regards.wav
Peak level 96.6 % Extraction speed 3.3 X Track quality 99.9 % Test CRC E81BB95F Copy CRC E81BB95F Accurately ripped (confidence 2) [C9B61864] (AR v2) Copy OK
Track 6
Filename E:\06 - Fin.wav
Peak level 96.6 % Extraction speed 4.0 X Track quality 100.0 % Test CRC E2B309BB Copy CRC E2B309BB Accurately ripped (confidence 1) [0CDE4A86] (AR v2) Copy OK
All tracks accurately ripped
No errors occurred
End of status report
==== Log checksum 44A37E343DCA62D0465A6872634B50BCA0A3F10E60A82F21E56873D1D5817309 ====

Содержание индексной карты (.CUE)

REM GENRE "New Age"REM DATE 2007REM DISCID 5112B306REM COMMENT "ExactAudioCopy v1.0b3"PERFORMER "Mimesis"TITLE "Art Imitating Life"FILE "01 - The Beginning.wav" WAVE  TRACK 01 AUDIO    TITLE "The Beginning"    PERFORMER "Mimesis"    ISRC AUPHL0700001    INDEX 01 00:00:00FILE "02 - Kuala Lumpur 1983.wav" WAVE  TRACK 02 AUDIO    TITLE "Kuala Lumpur 1983"    PERFORMER "Mimesis"    ISRC AUPHL0700002    INDEX 01 00:00:00FILE "03 - She's In The Garden.wav" WAVE  TRACK 03 AUDIO    TITLE "She's In The Garden"    PERFORMER "Mimesis"    ISRC AUPHL0700003    INDEX 01 00:00:00FILE "04 - White.wav" WAVE  TRACK 04 AUDIO    TITLE "White"    PERFORMER "Mimesis"    ISRC AUPHL0700004    INDEX 01 00:00:00FILE "05 - Matthews Sends His Regards.wav" WAVE  TRACK 05 AUDIO    TITLE "Matthews Sends His Regards"    PERFORMER "Mimesis"    ISRC AUPHL0700005    INDEX 01 00:00:00FILE "06 - Fin.wav" WAVE  TRACK 06 AUDIO    TITLE "Fin"    PERFORMER "Mimesis"    ISRC AUPHL0700006    INDEX 01 00:00:00

Доп. информация

Mimesis is a new recording project featuring the poetic words and voice of one of Australia's most prominent singer/song writers, Steve Kilbey (The Church) and the stunning complex ambient music of Melbourne based producer Simon Polinski (Hesius Dome/Ornament) along with Colin Berwick (Big Country), David Abiuso (Victorian State Orchestra) and guest musicians, Geoffrey Hales (Rip Van Hippy), Ollie Olsen & John Kilbey.
mimesis is finally finished
a album of atmospheres
dark beautiful music
words from dreams
ebbing flowing receding washing
coming on again
stronger stranger
music so full of sound
hidden things
things fizzing and squirming
falling and shivering
distant contraltos wailing
pianos crashing thru icy surfaces
double bass deep in the earth
the stories like life
that dont lead anywhere
you think
all things loop
all opposites reconciled and drowned
in each other
black n white become pains grey
(thats a painting pun)
anyway mimesis art imitating life
its fucking brilliant
and if any smarmy little bastard
gives it a slightly badde review
i'll be donning my bricklayer gear
and coming round yer house
and bricking yer fucking door up!
/sk
mimesis : what is mimesis ?
Plato, unlike his compatriot Aristotle, didn't much go for Mimesis, the notion that all art is imitation. Poets, painters and the like, he argued, were 'two steps removed from ultimate truth', undermining human stability at best, downright depressing people at worst.
Were he around today, though, Plato would most likely love the latest addition to Psy Harmonics catalogue, however irksome its title.
For starters Mimesis doesn't reference life as we know it, exploring instead a wondrous, mysterious afterlife imagined by The Church front-man Steve Kilbey, set to (in Kilbey's words) a 'lush, evocative, pulsing, living, electronic, organic, dreamlike' bed of ambience courtesy of production wiz Simon Polinski, double bassist David Abiuso, pianist Colin Berwick and the wild experimentation they shared for 18 months.
On so many levels, Mimesis is without precedent. It's a 79-minute art house flick without pictures, a complex jigsaw piece you'll never, ever finish, and the greatest dream you've never had. It's Gustav Holst's The Planets, Mozart, John Taverner and countless other composers cut, morphed, squeezed and pureed until tiny snippets of their work took on whole new dimensions. It is, depending on your mood, a trip record, a heavenly bliss-out, or a disturbing plug into the subconscious's subconscious.
Connection, disconnection, love, loss, life, afterlife, all get a going over in a work that 'like mercury' it's impossible to fully grasp, but fun trying.
Not bad for a story loosely focused around two deceased strangers, sitting around in a caravan, with strange yarns to tell.-Companies, etc.
Recorded At – Laundry Goat Studios
Recorded At – Karmic Hit Studio
Mixed At – Laundry Goat Studios
Mastered At – Laundry Goat Studios
Credits
Artwork By [Cover Painting] – Steve Kilbey
Backing Vocals – John Kilbey
Guitar, Piano, Bass – Colin Berwick
Keyboards, Bass, Mastered By – David Abiuso
Keyboards, Programmed By, Recorded By, Mixed By, Producer, Mastered By – Simon Polinski
Percussion – Geoffrey Hales (tracks: 1 to 4, 6)
Vocals – Steve Kilbey
Notes
Recorded and mixed at Laundry Goat studio, Melbourne, Australia
All vocals recorded at Karmic Hit, Sydney, Australia
Mastered at Laundry Goat studio.
Вы не можете начинать темы
Вы не можете отвечать на сообщения
Вы не можете редактировать свои сообщения
Вы не можете удалять свои сообщения
Вы не можете голосовать в опросах
Вы не можете прикреплять файлы к сообщениям
Вы можете скачивать файлы
!ВНИМАНИЕ!

Сайт не предоставляет электронные версии произведений, а занимается лишь коллекционированием и каталогизацией ссылок, присылаемых и публикуемых на форуме нашими читателями. Если вы являетесь правообладателем какого-либо представленного материала и не желаете, чтобы ссылка на него находилась в нашем каталоге, свяжитесь с нами, и мы незамедлительно удалим ее. Файлы для обмена на трекере предоставлены пользователями сайта, и администрация не несет ответственности за их содержание. Просьба не заливать файлы, защищенные авторскими правами, а также файлы нелегального содержания!

Искали программы, игры, дополнения, музыка mp3, аниме, аудио книги, журналы? Добро пожаловать на свободный торрент трекер Torrents, у нас можно скачать бесплатно, без смс и регистрации и прочих ограничений лучшие, отборные сборки программ, игр. Скачать торрентом не составит труда даже не опытному пользователю. Раздачи ежедневно обновляются, только лучшие и качественные раздачи, подробные описания и скриншоты. Огромная коллекция программ для работы со звуком, графикой, дизайном, а так же множество плагинов и инструментов к ним с подробной инструкцией и рекомендациями. Прошивки для навигаторов, карты. Разнообразные игры, для Windows, Linux. В коллекцие есть и старые игры любых жанров, Rpg, Action, Shooter, strategy Множество дополнений, модификаций, сценариев для популярных игр в жанре экш, рпг, гонки, стратегии, логические игры. Множество аддонов и сценариев для Microsoft Flight Simulator Большая коллекция книг, учебников. Если нет возможности купить печатное издание - смело скачивайте цифровую версию книги или, быть может, журнала. Не любите читать - можно загрузить бесплатно аудикнигу. Для веб дизайнеров и программистов так же найдется множество специализированного софта, таких как: редакторы с подсветкой, среды программирования, компоненты, системы управления базами данных, разнообразные скрипты и шаблоны. Не так давно у нас появился материал для автолюбителей и владельцев мото - оригинальные и неоригинальные каталоги запчастей, книги и журналы по ремонту и обслуживанию, видеоуроки, статьи по чип тюнингу, прошивкам. Процедура получения контента элементарная, достаточно просто скачать торрент файл и добавить его в загрузку в вашем торрент клиенте. Если у вас нет специального торрент клиента, вы можете его скачать у нас.

Register! | Mysterie | Gangland Undercover